Download Ant Man 2015 Cam – Pioneer222 1.05GB

image

Armed with a super-suit with the astonishing ability to shrink in scale but increase in strength, con-man Scott Lang must embrace his inner hero and help his mentor, Dr. Hank Pym, plan and pull off a heist that will save the world.

Ant Man Cam 2015 – Pioneer222.mkv
Format : Matroska
Format version : Version 1
File size : 1.05 GiB
Duration : 1h 46mn
Overall bit rate : 1 401 Kbps
Encoded date : UTC 2015-07-18 06:33:26
Writing application : AVSMatroskaFile
Writing library : libebml v0.7.7 + libmatroska v0.8.1

Video
ID : 1
Format : AVC
Format/Info : Advanced Video Codec
Format profile : Main@L5.0
Format settings, CABAC : Yes
Format settings, ReFrames : 1 frame
Codec ID : V_MPEG4/ISO/AVC
Duration : 1h 46mn
Bit rate : 1 181 Kbps
Width : 640 pixels
Height : 480 pixels
Display aspect ratio : 4:3
Frame rate mode : Constant
Frame rate : 25.000 fps
Color space : YUV
Chroma subsampling : 4:2:0
Bit depth : 8 bits
Scan type : Progressive
Bits/(Pixel*Frame) : 0.154
Stream size : 904 MiB (84%)
Default : Yes
Forced : No

Audio
ID : 2
Format : MPEG Audio
Format version : Version 1
Format profile : Layer 3
Codec ID : A_MPEG/L3
Codec ID/Hint : MP3
Duration : 1h 46mn
Bit rate mode : Constant
Bit rate : 192 Kbps
Channel(s) : 2 channels
Sampling rate : 48.0 KHz
Compression mode : Lossy
Stream size : 147 MiB (14%)
Writing library : LAMELAME_MAJOR_VERSI
Default : Yes
Forced : No

Download Links:

Download Torrent

NOTE : VERY BAD VIDEO BUT FULL MOVIE. (V:2 A:8)

Leave a Reply